<?xml version="1.0" standalone="no"?>
<!DOCTYPE svg PUBLIC "-//W3C//DTD SVG 1.1//EN" "http://www.w3.org/Graphics/SVG/1.1/DTD/svg11.dtd" >
<svg xmlns="http://www.w3.org/2000/svg">
<metadata>
This is a custom SVG webfont generated by Font Squirrel.
Copyright   : httpwwwflopdesigncom
</metadata>
<defs>
<font id="AbbeyRoadRegular" horiz-adv-x="462" >
<font-face units-per-em="2048" ascent="1638" descent="-410" />
<missing-glyph horiz-adv-x="500" />
<glyph unicode=" " />
<glyph unicode="!" horiz-adv-x="512" d="M145 1352h222l-45 -967h-134zM150 -2v211h212v-211h-212z" />
<glyph unicode="&#x22;" horiz-adv-x="796" d="M145 971v383h181v-246zM463 971v383h180v-246z" />
<glyph unicode="#" horiz-adv-x="1085" d="M113 406v135h147l37 276h-135v135h149l49 402h164l-49 -402h221l49 402h162l-49 -402h123v-135h-139l-35 -276h125v-135h-141l-50 -408h-161l49 408h-221l-50 -408h-163l51 408h-133zM422 539h223l35 280h-223z" />
<glyph unicode="$" horiz-adv-x="1001" d="M133 367l201 41q47 -227 180 -228q66 0 108 47t42 113q0 98 -113 188l-10 9l-215 178q-156 129 -156 303q0 121 69.5 210t188.5 113l-4 119h162l-4 -121q225 -55 282 -319l-200 -43q-33 180 -152 188q-59 4 -98 -37t-39 -100q0 -86 80 -154l227 -190q186 -156 186 -332 q0 -156 -106 -258q-74 -70 -180 -92l4 -119h-162l4 123q-234 60 -295 361z" />
<glyph unicode="%" horiz-adv-x="1513" d="M123 1047q0 129 82 219t211 90t211 -90t82 -219q0 -131 -82 -220.5t-211 -89.5t-211 89.5t-82 220.5zM270 1047q0 -72 38 -121t108 -49t107.5 49t37.5 121q0 70 -39 118.5t-106 48.5q-70 0 -108 -47.5t-38 -119.5zM287 -31l770 1413h172l-772 -1413h-170zM809 303 q0 131 82 220t211 89t211 -89t82 -220q0 -129 -82 -219t-211 -90t-211 90t-82 219zM956 303q0 -70 39 -119t107 -49t106.5 49t38.5 119q0 72 -35 119q-41 51 -110 51q-70 0 -108 -49t-38 -121z" />
<glyph unicode="&#x26;" horiz-adv-x="1208" d="M125 340q0 150 106 274q45 53 140 129q-113 178 -113 338q0 82 31 142q76 145 246 145q127 0 198.5 -79t71.5 -210q0 -195 -209 -374l197 -308q43 74 108 232h182q-45 -113 -196 -377q141 -211 182 -254h-225q-12 18 -66 104q-143 -123 -317 -122q-203 0 -295 186 q-41 84 -41 174zM309 340q-4 -76 40 -133t120 -57q117 0 215 102l-219 340q-150 -115 -156 -252zM416 1085q0 -121 88 -247q156 133 143 280q-10 109 -115 109q-59 0 -90.5 -40.5t-25.5 -101.5z" />
<glyph unicode="'" horiz-adv-x="376" d="M20 971v383h181v-246z" />
<glyph unicode="(" horiz-adv-x="634" d="M135 604q0 432 215 785h193q-209 -352 -209 -785q0 -428 207 -778h-193q-213 350 -213 778z" />
<glyph unicode=")" horiz-adv-x="647" d="M98 1389h193q215 -352 215 -785q0 -428 -213 -778h-193q207 350 207 778q0 433 -209 785z" />
<glyph unicode="*" horiz-adv-x="872" d="M133 926l184 108l-184 109l68 102l176 -106l-2 213h123l-2 -211l174 104l69 -100l-188 -111l188 -110l-69 -101l-174 107l2 -213h-123l2 213l-176 -107z" />
<glyph unicode="+" horiz-adv-x="1183" d="M113 393v164h393v397h172v-397h393v-164h-393v-397h-172v397h-393z" />
<glyph unicode="," horiz-adv-x="335" d="M61 -160v369h193v-232z" />
<glyph unicode="-" horiz-adv-x="882" d="M145 393v164h594v-164h-594z" />
<glyph unicode="." horiz-adv-x="509" d="M150 -2v190h190v-190h-190z" />
<glyph unicode="/" horiz-adv-x="864" d="M121 -31l440 1411h182l-440 -1411h-182z" />
<glyph unicode="0" horiz-adv-x="870" d="M102 408v536q0 262 91 354q70 70 241 70q174 0 244 -70q90 -92 90 -354v-536q0 -262 -90 -355q-70 -70 -244 -69q-172 0 -241 69q-91 93 -91 355zM319 334q0 -86 15 -121q25 -59 100 -59q78 0 103 59q14 35 14 121v684q0 88 -14 123q-25 57 -103 57q-76 0 -100 -57 q-14 -35 -15 -123v-684z" />
<glyph unicode="1" horiz-adv-x="591" d="M49 1047v188l191 117h200v-1354h-200v1159z" />
<glyph unicode="2" horiz-adv-x="841" d="M82 -2v178q59 78 246 359q178 270 211 419q10 49 10 86q0 145 -100 160q-88 12 -125 -74q-27 -61 -23 -159h-211q-8 225 123 331q98 80 236 76q123 -2 206.5 -70.5t98.5 -187.5q6 -47 6 -92q0 -182 -174 -440q-74 -109 -287 -408h430v-178h-647z" />
<glyph unicode="3" horiz-adv-x="817" d="M61 1063q0 193 166 270q78 37 168 39q152 4 228 -112q63 -96 63 -256q0 -225 -154 -291q172 -43 181 -295q4 -158 -31 -250q-72 -186 -303 -186q-225 0 -289 170q-23 61 -22 229h194q0 -125 14 -164q23 -61 103 -61t104 61q16 41 17 162q0 115 -25 162q-43 84 -180 84 v170q182 -20 192 209q8 199 -110 198q-111 0 -111 -198h-200q-5 30 -5 59z" />
<glyph unicode="4" horiz-adv-x="841" d="M31 303v160l420 889h198v-889h131v-160h-131v-305h-198v305h-420zM199 463h252v532z" />
<glyph unicode="5" horiz-adv-x="868" d="M92 307q0 35 4 74h199q0 -125 14 -164q23 -61 101 -61q80 0 104 61q18 45 18 162v153q0 82 -12 117q-23 66 -96 64q-113 -2 -129 -101h-172l2 740h565v-178h-375l-2 -402q20 115 189 115q29 0 43 -2q201 -29 200 -359v-108q0 -170 -30 -250q-74 -190 -305 -186 q-82 2 -158 41q-160 81 -160 284z" />
<glyph unicode="6" horiz-adv-x="833" d="M96 446q0 211 97 463l178 443h217l-189 -469q27 2 50 2q203 0 268 -154q41 -96 41 -340q0 -410 -332 -409q-231 0 -301 190q-29 77 -29 274zM309 424q0 -131 10 -172q25 -96 113 -96q78 0 105 84q16 53 16 186q0 152 -8 190q-23 104 -117 105q-92 0 -113 -115 q-6 -32 -6 -182z" />
<glyph unicode="7" horiz-adv-x="741" d="M41 1174v178h639l-309 -1354h-211l278 1176h-397z" />
<glyph unicode="8" horiz-adv-x="849" d="M92 379q0 270 150 340q-125 68 -129 295q-2 156 78.5 257t232.5 101q154 0 238 -104q78 -96 75 -254q0 -59 -16 -121q-33 -129 -115 -174q152 -70 152 -340q0 -395 -334 -395q-332 0 -332 395zM291 395q0 -238 133 -237q86 0 115 82q18 49 18 155q0 227 -133 228 q-133 -1 -133 -228zM311 1010q0 -199 113 -199q115 0 115 199q0 188 -115 188q-113 0 -113 -188z" />
<glyph unicode="9" horiz-adv-x="845" d="M82 977q0 391 332 391q233 0 301 -180q29 -76 28 -266q0 -168 -96 -453q-14 -41 -178 -471h-217l197 508q-25 -2 -50 -2q-211 0 -276 153q-41 97 -41 320zM287 942q0 -139 10 -180q25 -96 117 -96q84 0 108 104q12 51 13 174q0 115 -15 162q-29 90 -112 90 q-78 0 -105 -78q-16 -49 -16 -176z" />
<glyph unicode=":" horiz-adv-x="503" d="M145 -2v211h213v-211h-213zM145 524v211h213v-211h-213z" />
<glyph unicode=";" horiz-adv-x="491" d="M139 -139v348h213v-211zM139 524v211h213v-211h-213z" />
<glyph unicode="&#x3c;" horiz-adv-x="1212" d="M127 391v164l958 389v-186l-723 -285l723 -283v-186z" />
<glyph unicode="=" horiz-adv-x="1183" d="M113 193v169h958v-169h-958zM113 586v170h958v-170h-958z" />
<glyph unicode="&#x3e;" horiz-adv-x="1171" d="M106 4v186l723 283l-723 285v186l959 -389v-164z" />
<glyph unicode="?" horiz-adv-x="856" d="M125 1010q-6 131 49 223q61 100 186 123q33 6 70 6q102 0 178 -43q125 -70 125 -215q0 -106 -131 -291q-115 -162 -115 -405h-165q0 221 63 362q6 14 92 156q63 102 64 155q0 53 -35 87t-88 34q-137 0 -137 -190zM291 2v213h213v-213h-213z" />
<glyph unicode="@" horiz-adv-x="1642" d="M131 680q0 291 204 493.5t494 202.5h45q186 0 351.5 -102.5t242.5 -269.5q41 -88 41 -193q0 -133 -65.5 -260t-175.5 -197q-131 -82 -228 -82q-117 0 -104 121v4q-106 -125 -231 -125q-59 0 -119 31q-166 84 -166 287q0 137 88 268q129 190 315 191q176 0 238 -162 q12 39 43 133h129l-125 -508q-4 -16 -4 -45q0 -57 41 -57q23 0 53 18q174 102 174 342q0 238 -155 348l-50 35q-125 88 -307 88q-236 0 -403.5 -163t-167.5 -398q0 -236 168 -399.5t403 -163.5q256 0 422 157h143q-96 -137 -260 -214.5t-336 -77.5q-291 0 -494.5 203.5 t-203.5 494.5zM604 598q0 -109 86 -156q37 -20 74 -20q96 0 172 100q68 94 68 195q0 129 -107 168q-23 8 -49 8q-63 0 -120.5 -42t-86.5 -103q-37 -80 -37 -150z" />
<glyph unicode="A" horiz-adv-x="966" d="M84 -2h205l59 307h277l55 -307h205l-252 1354h-281zM383 494l106 618l103 -618h-209z" />
<glyph unicode="B" horiz-adv-x="962" d="M141 -2v1354h351q356 0 356 -355v-34q0 -150 -162 -246q184 -98 184 -279v-84q0 -168 -100 -262t-270 -94h-359zM356 184h144q70 0 111.5 49.5t41.5 120.5v84q0 72 -42 122t-111 50h-144v-426zM356 795h119q70 0 111 51q37 45 37 117v34q0 72 -39 121t-109 49h-119v-372z " />
<glyph unicode="C" horiz-adv-x="915" d="M111 315v719q0 160 98 248q92 84 254 84q156 0 249 -89t93 -243v-127h-213v123q0 61 -39 104.5t-98 43.5q-61 0 -96 -43t-35 -105v-711q0 -61 35.5 -103t95.5 -42q61 0 99 42t38 103v148h213v-152q0 -152 -94.5 -241.5t-247.5 -89.5q-162 0 -254 84q-98 87 -98 247z" />
<glyph unicode="D" horiz-adv-x="956" d="M143 1352h359q147 0 250.5 -103.5t103.5 -251.5v-645q0 -147 -103.5 -250.5t-250.5 -103.5h-355zM358 182h101q72 0 121 49.5t49 120.5v645q0 72 -49.5 121t-120.5 49h-101v-985z" />
<glyph unicode="E" horiz-adv-x="851" d="M135 -2v1354h617v-195h-406v-360h313v-193h-313v-407h424v-199h-635z" />
<glyph unicode="F" horiz-adv-x="835" d="M145 -2v1354h639v-195h-428v-360h332v-193h-332v-606h-211z" />
<glyph unicode="G" horiz-adv-x="915" d="M119 315v719q0 160 98 248q92 84 254 84q156 0 249 -89t93 -243v-127h-213v123q0 61 -39 104.5t-98 43.5q-61 0 -96 -43t-35 -105v-711q0 -61 35.5 -103t95.5 -42q61 0 101 42t40 103v185h-176v168h385v-357q0 -152 -94 -241.5t-248 -89.5q-162 0 -254 84q-98 87 -98 247 z" />
<glyph unicode="H" horiz-adv-x="1003" d="M143 -2v1354h215v-555h287v555h215v-1354h-215v606h-287v-606h-215z" />
<glyph unicode="I" horiz-adv-x="509" d="M147 -2v1354h215v-1354h-215z" />
<glyph unicode="J" horiz-adv-x="632" d="M88 -16v186h45q135 0 135 145v1037h207v-1059q0 -143 -45 -205q-76 -104 -291 -104h-51z" />
<glyph unicode="K" horiz-adv-x="983" d="M166 -2v1354h207v-580l266 580h223l-256 -521l287 -833h-223l-193 608l-104 -211v-397h-207z" />
<glyph unicode="L" horiz-adv-x="768" d="M141 -2v1354h215v-1159h371v-193z" />
<glyph unicode="M" horiz-adv-x="1267" d="M143 -2v1354h293l199 -801l196 801h293v-1354h-188v1081l-252 -1081h-100l-252 1081v-1081h-189z" />
<glyph unicode="N" horiz-adv-x="993" d="M143 -2v1354h205l311 -830v830h191v-1354h-191l-327 907v-907h-189z" />
<glyph unicode="O" horiz-adv-x="870" d="M84 315v719q0 158 100 248q94 84 256 84q156 0 252 -89t96 -243v-719q0 -152 -97 -241.5t-251 -89.5q-162 0 -256 84q-100 89 -100 247zM297 319q0 -61 38 -103t99 -42t101 42t40 103v711q0 61 -39.5 104.5t-101.5 43.5q-61 0 -99 -43t-38 -105v-711z" />
<glyph unicode="P" horiz-adv-x="960" d="M141 -2v1354h375q172 0 272.5 -94.5t100.5 -264.5v-80q0 -170 -100.5 -263t-272.5 -93h-160v-559h-215zM356 743h160q70 0 112 50.5t42 119.5v80q0 72 -42 121t-112 49h-160v-420z" />
<glyph unicode="Q" horiz-adv-x="911" d="M104 315v719q0 158 101 248q94 84 256 84q156 0 252 -89t96 -243v-719q0 -121 -66.5 -208t-183.5 -113v-168h-205v170q-119 27 -184.5 111.5t-65.5 207.5zM317 315q0 -61 38 -103t100 -42q61 0 101 42t40 103v715q0 61 -40 104.5t-101 43.5t-99.5 -43t-38.5 -105v-715z " />
<glyph unicode="R" horiz-adv-x="970" d="M160 -2v1354h336q172 0 272 -94.5t100 -264.5v-80q0 -233 -184 -317l205 -598h-221l-185 559h-116v-559h-207zM367 743h129q70 0 111.5 50.5t41.5 119.5v80q0 72 -42 121t-111 49h-129v-420z" />
<glyph unicode="S" horiz-adv-x="890" d="M66 365q70 -330 327 -377q33 -6 66 -6q129 0 226 78.5t126 203.5q10 45 10 84q0 190 -190 342l-10 8l-222 185q-80 66 -80 153q0 59 38 101q34 37 87 37h11q117 -8 151 -189v-4l211 45v4q-31 141 -117 230q-96 100 -231 108q-14 1 -28 1q-135 0 -231 -90 q-105 -99 -106 -253q0 -178 158 -309l230 -191q115 -96 114 -190q0 -66 -42 -113t-107 -47q-133 0 -181 232v2l-210 -43v-2z" />
<glyph unicode="T" horiz-adv-x="784" d="M51 1155v197h682v-197h-237v-1157h-211v1157h-234z" />
<glyph unicode="U" horiz-adv-x="970" d="M133 315v1037h213v-1033q0 -61 38 -103t99 -42t101.5 42t40.5 103v1033h213v-1037q0 -152 -97.5 -241.5t-251.5 -89.5q-162 0 -256 84q-100 89 -100 247z" />
<glyph unicode="V" horiz-adv-x="935" d="M68 1352h219l180 -994l178 994h221l-286 -1354h-228z" />
<glyph unicode="W" horiz-adv-x="1404" d="M61 1352h213l164 -934l172 934h185l172 -934l163 934h213l-262 -1354h-213l-166 891l-167 -891h-211z" />
<glyph unicode="X" horiz-adv-x="919" d="M70 -2l270 707l-248 647h221l148 -443l149 443h219l-247 -647l270 -707h-219l-172 510l-172 -510h-219z" />
<glyph unicode="Y" horiz-adv-x="882" d="M37 1352h223l180 -572l178 572h226l-301 -803v-551h-219v573z" />
<glyph unicode="Z" horiz-adv-x="870" d="M90 -2v199l445 958h-383v197h610v-197l-445 -958h445v-199h-672z" />
<glyph unicode="[" horiz-adv-x="657" d="M133 -139v1491h393v-142h-223v-1206h223v-143h-393z" />
<glyph unicode="\" horiz-adv-x="1036" d="M137 1352h195l186 -615l189 615h192l-258 -647h248v-142h-279v-164h279v-143h-279v-258h-184v258h-279v143h279v164h-279v142h248z" />
<glyph unicode="]" horiz-adv-x="698" d="M152 4h225v1206h-225v142h393v-1491h-393v143z" />
<glyph unicode="^" horiz-adv-x="1185" d="M145 567l353 785h190l354 -785h-192l-256 574l-258 -574h-191z" />
<glyph unicode="_" horiz-adv-x="884" d="M-31 -121h949v-88h-949v88z" />
<glyph unicode="`" horiz-adv-x="657" d="M139 1389h232l147 -252h-170z" />
<glyph unicode="a" horiz-adv-x="862" d="M88 516q0 207 43 322q78 207 242 206q119 0 168 -116v123h194v-1053h-194v74q-59 -84 -162 -84q-94 0 -166 69q-61 61 -90 160q-35 115 -35 299zM305 504q0 -358 121 -359q74 0 98 111q16 74 17 252q0 182 -17 258q-25 117 -98 117q-121 0 -121 -379z" />
<glyph unicode="b" horiz-adv-x="886" d="M147 -2v1356h195v-426q49 117 168 116q90 0 162 -71q63 -66 90 -158q33 -111 33 -299q0 -213 -41 -323q-76 -205 -248 -205q-104 0 -164 84v-74h-195zM344 508q0 -176 16 -252q25 -111 99 -111q119 0 119 359q0 379 -119 379q-74 0 -99 -117q-16 -76 -16 -258z" />
<glyph unicode="c" horiz-adv-x="882" d="M113 524q0 213 65 348q87 172 270 173q6 0 13 -1q88 -2 164 -45q148 -84 148 -283q0 -15 -1 -32l-199 -12q-10 184 -118 205h-7q-135 0 -135 -355q0 -375 134 -375h8q70 12 100 97q16 43 18 108h199q1 -17 1 -32q0 -206 -148 -293q-76 -43 -164 -45h-5q-343 -1 -343 542z " />
<glyph unicode="d" horiz-adv-x="882" d="M92 518q0 205 43 320q78 207 242 206q119 0 168 -116v424h194v-1352h-194v72q-59 -84 -162 -84q-94 0 -166 69q-61 61 -90 160q-35 115 -35 301zM309 506q0 -360 121 -361q74 0 98 111q16 74 17 254q0 182 -17 258q-25 115 -98 115q-121 0 -121 -377z" />
<glyph unicode="e" horiz-adv-x="837" d="M88 526q0 520 348 521q209 0 277 -197q35 -102 35 -369h-459q4 -334 133 -334h8q70 12 100 97q16 43 19 108h199q1 -17 0 -32q0 -206 -148 -293q-76 -43 -164 -45h-5q-343 -1 -343 544zM293 641h256v12q0 70 -23 133q-33 90 -96 95h-6q-113 0 -131 -240z" />
<glyph unicode="f" horiz-adv-x="618" d="M76 866v158h127q0 195 41 260q53 90 229 90q29 0 59 -4v-162q-25 4 -45 4q-88 0 -88 -59v-129h123v-158h-123v-868h-196v868h-127z" />
<glyph unicode="g" horiz-adv-x="884" d="M92 -70h221q2 -102 84 -116q12 -2 27 -2q57 0 90 45q31 39 31 98v115q-59 -82 -162 -82q-92 0 -164 71q-63 63 -92 158q-35 115 -35 301q0 205 43 320q78 207 244 206q117 0 166 -116v96h196v-1065q0 -141 -89 -213t-232 -72q-72 0 -131 17q-197 54 -198 220q0 9 1 19z M311 506q0 -360 119 -361q74 0 98 111q16 74 17 254q0 182 -17 258q-25 115 -98 115q-119 0 -119 -377z" />
<glyph unicode="h" horiz-adv-x="894" d="M143 -2v1354h195v-420q66 113 203 112q125 0 186 -71q45 -55 45 -133v-842h-203v741q0 55 -24 95q-29 47 -80 51h-6q-40 0 -79 -27q-42 -29 -42 -70v-790h-195z" />
<glyph unicode="i" horiz-adv-x="464" d="M133 -2v1026h199v-1026h-199zM133 1171v181h199v-181h-199z" />
<glyph unicode="j" horiz-adv-x="557" d="M90 -143q16 -4 31 -4q88 0 88 114v1057h199v-1071q0 -164 -74 -223q-63 -51 -196 -51q-23 0 -48 2v176zM209 1167v185h199v-185h-199z" />
<glyph unicode="k" horiz-adv-x="942" d="M147 -2v1354h195v-748l258 420h213l-229 -346l256 -680h-201l-178 506l-119 -172v-334h-195z" />
<glyph unicode="l" horiz-adv-x="464" d="M133 -2v1354h199v-1354h-199z" />
<glyph unicode="m" horiz-adv-x="1329" d="M133 -2v1026h191v-117l8 17q59 119 207 118q25 0 53 -4q131 -18 168 -133l8 19q53 119 205 118q125 0 186 -71q47 -55 47 -131v-842h-202v739q0 55 -25 94q-29 47 -80 52h-11q-46 0 -80 -30q-38 -34 -38 -87l-2 -768h-201v739q0 55 -24 94q-29 47 -80 52h-11 q-48 0 -82 -34q-38 -38 -38 -93v-758h-199z" />
<glyph unicode="n" horiz-adv-x="888" d="M133 -2v1026h199v-94q66 113 203 112q125 0 186 -71q45 -55 45 -131v-842h-203v739q0 135 -104 146q-7 1 -14 0q-86 0 -113 -95v-790h-199z" />
<glyph unicode="o" horiz-adv-x="833" d="M86 514q0 176 16 272q45 260 316 261q270 0 315 -261q14 -84 15 -272q0 -190 -15 -274q-45 -260 -315 -260t-316 260q-16 96 -16 274zM289 514q0 -193 8 -240q23 -131 121 -131q96 0 121 131q8 43 8 240q0 195 -8 238q-25 131 -121 131q-98 0 -121 -131q-8 -48 -8 -238z " />
<glyph unicode="p" horiz-adv-x="886" d="M147 -315v1339h187v-123q43 141 176 141q92 0 162 -71q61 -63 90 -158q33 -111 33 -295q0 -215 -41 -325q-76 -205 -248 -205q-104 0 -164 84v-387h-195zM344 510q0 -178 16 -254q25 -111 99 -111q119 0 119 361q0 377 -119 377q-74 0 -99 -115q-16 -76 -16 -258z" />
<glyph unicode="q" horiz-adv-x="911" d="M109 518q0 207 43 320q78 205 241 204q129 0 178 -141v123h187v-1339h-197v387q-59 -84 -162 -84q-92 0 -163 71q-63 63 -93 158q-34 117 -34 301zM326 506q0 -360 120 -361q74 0 99 111q16 74 16 254q0 182 -16 258q-25 115 -99 115q-120 0 -120 -377z" />
<glyph unicode="r" horiz-adv-x="649" d="M133 -2v1026h191v-178q59 199 251 198q20 0 43 -4v-192q-45 12 -92 12q-53 0 -86 -10q-51 -16 -79.5 -70.5t-28.5 -111.5v-670h-199z" />
<glyph unicode="s" horiz-adv-x="768" d="M66 283l2 -7q57 -254 274 -290q29 -4 57 -4q104 0 186.5 60t106.5 157q8 37 8 69q0 147 -157 269l-6 6v-2q-2 2 -111 84l-78 57q-63 47 -63 104q0 41 33 65q31 22 70 22q3 0 7 -1q94 -4 123 -131l2 -4l178 43l-2 6q-27 115 -105.5 184.5t-187.5 76.5q-12 1 -23 0 q-110 0 -193 -70q-91 -78 -91 -201q0 -147 135 -248l191 -143q92 -68 92 -129q0 -8 -4 -23q-8 -39 -48 -61q-29 -17 -64 -16q-12 0 -25 2q-92 16 -125 159v7z" />
<glyph unicode="t" horiz-adv-x="604" d="M59 864v160h123v254h195v-254h143v-160h-143v-647q0 -59 96 -59q23 0 45 4v-174q-43 -6 -82 -6q-221 0 -248 188q-6 45 -6 195v499h-123z" />
<glyph unicode="u" horiz-adv-x="894" d="M129 184v840h203v-739q0 -53 26.5 -96.5t77.5 -47.5q6 -1 12 0q38 0 69 23q36 27 46 72v788h199v-1024h-199v94q-66 -113 -203 -112q-25 0 -53 4q-82 12 -130 64t-48 134z" />
<glyph unicode="v" horiz-adv-x="839" d="M72 1024h202l146 -758l147 758h201l-250 -1026h-196z" />
<glyph unicode="w" horiz-adv-x="1179" d="M70 1024h192l98 -692l158 692h141l136 -692l120 692h193l-231 -1026h-158l-135 680l-158 -680h-158z" />
<glyph unicode="x" horiz-adv-x="808" d="M61 -2l232 551l-209 475h207l115 -307l118 307h207l-215 -475l232 -551h-207l-138 389l-135 -389h-207z" />
<glyph unicode="y" horiz-adv-x="823" d="M68 1024h202l133 -637l154 637h203l-389 -1339h-172l110 409z" />
<glyph unicode="z" horiz-adv-x="856" d="M117 -2v160l405 706h-377v160h596v-160l-405 -706h405v-160h-624z" />
<glyph unicode="{" horiz-adv-x="763" d="M129 545v125h31q33 0 57.5 27.5t24.5 62.5v432q0 82 57 139.5t139 57.5h197v-105h-113q-35 0 -58.5 -23.5t-23.5 -58.5v-397q0 -82 -57 -139.5t-139 -57.5q82 0 139 -58t57 -140v-400q0 -33 24.5 -57.5t57.5 -24.5h115l-2 -102h-197q-82 0 -139 57.5t-57 139.5v432 q0 35 -24.5 62.5t-57.5 27.5h-31z" />
<glyph unicode="|" horiz-adv-x="481" d="M152 -31v1420h178v-1420h-178z" />
<glyph unicode="}" horiz-adv-x="778" d="M135 -72h113q35 0 58.5 23.5t23.5 58.5l2 400q0 82 57 140t139 58q-82 0 -139 57.5t-57 139.5v397q0 35 -23.5 58.5t-58.5 23.5h-113v105h197q80 0 138 -58.5t58 -138.5v-432q0 -35 25 -62.5t57 -27.5h31v-125h-31q-33 0 -57.5 -28t-24.5 -62v-432q0 -82 -57 -139.5 t-139 -57.5h-197z" />
<glyph unicode="~" horiz-adv-x="1191" d="M143 477q94 143 236 144q59 0 139 -29q66 -27 133 -53q86 -35 146 -37q86 -4 172 106l82 -143q-111 -141 -240 -141q-74 0 -149 34l-123 60q-70 31 -131 31q-111 0 -183 -117z" />
<glyph unicode="&#xa0;" />
<glyph unicode="&#xa2;" />
<glyph unicode="&#xa3;" />
<glyph unicode="&#xa5;" horiz-adv-x="1036" d="M137 1352h195l186 -615l189 615h192l-258 -647h248v-142h-279v-164h279v-143h-279v-258h-184v258h-279v143h279v164h-279v142h248z" />
<glyph unicode="&#xa6;" />
<glyph unicode="&#xa7;" />
<glyph unicode="&#xa8;" />
<glyph unicode="&#xa9;" />
<glyph unicode="&#xaa;" horiz-adv-x="862" d="M88 516q0 207 43 322q78 207 242 206q119 0 168 -116v123h194v-1053h-194v74q-59 -84 -162 -84q-94 0 -166 69q-61 61 -90 160q-35 115 -35 299zM305 504q0 -358 121 -359q74 0 98 111q16 74 17 252q0 182 -17 258q-25 117 -98 117q-121 0 -121 -379z" />
<glyph unicode="&#xad;" />
<glyph unicode="&#x2212;" />
<glyph unicode="&#xae;" />
<glyph unicode="&#xb0;" />
<glyph unicode="&#xb1;" />
<glyph unicode="&#xb2;" horiz-adv-x="841" d="M82 -2v178q59 78 246 359q178 270 211 419q10 49 10 86q0 145 -100 160q-88 12 -125 -74q-27 -61 -23 -159h-211q-8 225 123 331q98 80 236 76q123 -2 206.5 -70.5t98.5 -187.5q6 -47 6 -92q0 -182 -174 -440q-74 -109 -287 -408h430v-178h-647z" />
<glyph unicode="&#xb3;" horiz-adv-x="817" d="M61 1063q0 193 166 270q78 37 168 39q152 4 228 -112q63 -96 63 -256q0 -225 -154 -291q172 -43 181 -295q4 -158 -31 -250q-72 -186 -303 -186q-225 0 -289 170q-23 61 -22 229h194q0 -125 14 -164q23 -61 103 -61t104 61q16 41 17 162q0 115 -25 162q-43 84 -180 84 v170q182 -20 192 209q8 199 -110 198q-111 0 -111 -198h-200q-5 30 -5 59z" />
<glyph unicode="&#xb4;" />
<glyph unicode="&#xb5;" />
<glyph unicode="&#x3bc;" />
<glyph unicode="&#xb6;" />
<glyph unicode="&#xb9;" horiz-adv-x="591" d="M49 1047v188l191 117h200v-1354h-200v1159z" />
<glyph unicode="&#xba;" horiz-adv-x="833" d="M86 514q0 176 16 272q45 260 316 261q270 0 315 -261q14 -84 15 -272q0 -190 -15 -274q-45 -260 -315 -260t-316 260q-16 96 -16 274zM289 514q0 -193 8 -240q23 -131 121 -131q96 0 121 131q8 43 8 240q0 195 -8 238q-25 131 -121 131q-98 0 -121 -131q-8 -48 -8 -238z " />
<glyph unicode="&#xc0;" horiz-adv-x="966" d="M198 1741h232l147 -252h-170zM84 -2h205l59 307h277l55 -307h205l-252 1354h-281zM383 494l106 618l103 -618h-209z" />
<glyph unicode="&#xc1;" horiz-adv-x="966" d="M84 -2h205l59 307h277l55 -307h205l-252 1354h-281zM383 494l106 618l103 -618h-209z" />
<glyph unicode="&#xc2;" horiz-adv-x="966" d="M43 1489l353 785h190l354 -785h-192l-256 574l-258 -574h-191zM84 -2h205l59 307h277l55 -307h205l-252 1354h-281zM383 494l106 618l103 -618h-209z" />
<glyph unicode="&#xc3;" horiz-adv-x="966" d="M39 1642q94 143 236 144q59 0 139 -29q66 -27 133 -53q86 -35 146 -37q86 -4 172 106l82 -143q-111 -141 -240 -141q-74 0 -149 34l-123 60q-70 31 -131 31q-111 0 -183 -117zM84 -2h205l59 307h277l55 -307h205l-252 1354h-281zM383 494l106 618l103 -618h-209z" />
<glyph unicode="&#xc4;" />
<glyph unicode="&#xc5;" />
<glyph unicode="&#xc6;" />
<glyph unicode="&#xc7;" />
<glyph unicode="&#xc8;" horiz-adv-x="851" d="M149 1741h232l147 -252h-170zM135 -2v1354h617v-195h-406v-360h313v-193h-313v-407h424v-199h-635z" />
<glyph unicode="&#xc9;" />
<glyph unicode="&#xca;" horiz-adv-x="851" d="M-7 1489l353 785h190l354 -785h-192l-256 574l-258 -574h-191zM135 -2v1354h617v-195h-406v-360h313v-193h-313v-407h424v-199h-635z" />
<glyph unicode="&#xcb;" horiz-adv-x="851" d="M135 -2v1354h617v-195h-406v-360h313v-193h-313v-407h424v-199h-635z" />
<glyph unicode="&#xcc;" horiz-adv-x="509" d="M-39 1741h232l147 -252h-170zM147 -2v1354h215v-1354h-215z" />
<glyph unicode="&#xcd;" horiz-adv-x="509" d="M147 -2v1354h215v-1354h-215z" />
<glyph unicode="&#xce;" horiz-adv-x="509" d="M-195 1489l353 785h190l354 -785h-192l-256 574l-258 -574h-191zM147 -2v1354h215v-1354h-215z" />
<glyph unicode="&#xcf;" horiz-adv-x="509" d="M147 -2v1354h215v-1354h-215z" />
<glyph unicode="&#xd1;" />
<glyph unicode="&#xd2;" horiz-adv-x="870" d="M147 1741h232l147 -252h-170zM84 315v719q0 158 100 248q94 84 256 84q156 0 252 -89t96 -243v-719q0 -152 -97 -241.5t-251 -89.5q-162 0 -256 84q-100 89 -100 247zM297 319q0 -61 38 -103t99 -42t101 42t40 103v711q0 61 -39.5 104.5t-101.5 43.5q-61 0 -99 -43 t-38 -105v-711z" />
<glyph unicode="&#xd3;" horiz-adv-x="870" d="M84 315v719q0 158 100 248q94 84 256 84q156 0 252 -89t96 -243v-719q0 -152 -97 -241.5t-251 -89.5q-162 0 -256 84q-100 89 -100 247zM297 319q0 -61 38 -103t99 -42t101 42t40 103v711q0 61 -39.5 104.5t-101.5 43.5q-61 0 -99 -43t-38 -105v-711z" />
<glyph unicode="&#xd4;" horiz-adv-x="870" d="M-9 1489l353 785h190l354 -785h-192l-256 574l-258 -574h-191zM84 315v719q0 158 100 248q94 84 256 84q156 0 252 -89t96 -243v-719q0 -152 -97 -241.5t-251 -89.5q-162 0 -256 84q-100 89 -100 247zM297 319q0 -61 38 -103t99 -42t101 42t40 103v711q0 61 -39.5 104.5 t-101.5 43.5q-61 0 -99 -43t-38 -105v-711z" />
<glyph unicode="&#xd5;" horiz-adv-x="870" d="M-13 1642q94 143 236 144q59 0 139 -29q66 -27 133 -53q86 -35 146 -37q86 -4 172 106l82 -143q-111 -141 -240 -141q-74 0 -149 34l-123 60q-70 31 -131 31q-111 0 -183 -117zM84 315v719q0 158 100 248q94 84 256 84q156 0 252 -89t96 -243v-719q0 -152 -97 -241.5 t-251 -89.5q-162 0 -256 84q-100 89 -100 247zM297 319q0 -61 38 -103t99 -42t101 42t40 103v711q0 61 -39.5 104.5t-101.5 43.5q-61 0 -99 -43t-38 -105v-711z" />
<glyph unicode="&#xd6;" />
<glyph unicode="&#xd7;" />
<glyph unicode="&#xd8;" />
<glyph unicode="&#xd9;" horiz-adv-x="970" d="M192 1741h232l147 -252h-170zM133 315v1037h213v-1033q0 -61 38 -103t99 -42t101.5 42t40.5 103v1033h213v-1037q0 -152 -97.5 -241.5t-251.5 -89.5q-162 0 -256 84q-100 89 -100 247z" />
<glyph unicode="&#xda;" horiz-adv-x="970" d="M133 315v1037h213v-1033q0 -61 38 -103t99 -42t101.5 42t40.5 103v1033h213v-1037q0 -152 -97.5 -241.5t-251.5 -89.5q-162 0 -256 84q-100 89 -100 247z" />
<glyph unicode="&#xdb;" horiz-adv-x="970" d="M36 1489l353 785h190l354 -785h-192l-256 574l-258 -574h-191zM133 315v1037h213v-1033q0 -61 38 -103t99 -42t101.5 42t40.5 103v1033h213v-1037q0 -152 -97.5 -241.5t-251.5 -89.5q-162 0 -256 84q-100 89 -100 247z" />
<glyph unicode="&#xdc;" />
<glyph unicode="&#xdd;" horiz-adv-x="882" d="M37 1352h223l180 -572l178 572h226l-301 -803v-551h-219v573z" />
<glyph unicode="&#xdf;" />
<glyph unicode="&#xe0;" />
<glyph unicode="&#xe1;" />
<glyph unicode="&#xe2;" />
<glyph unicode="&#xe3;" />
<glyph unicode="&#xe4;" />
<glyph unicode="&#xe5;" />
<glyph unicode="&#xe7;" />
<glyph unicode="&#xe8;" />
<glyph unicode="&#xe9;" />
<glyph unicode="&#xea;" />
<glyph unicode="&#xeb;" />
<glyph unicode="&#xec;" />
<glyph unicode="&#xed;" />
<glyph unicode="&#xee;" />
<glyph unicode="&#xef;" />
<glyph unicode="&#xf1;" />
<glyph unicode="&#xf2;" />
<glyph unicode="&#xf3;" />
<glyph unicode="&#xf4;" />
<glyph unicode="&#xf5;" />
<glyph unicode="&#xf6;" />
<glyph unicode="&#xf9;" />
<glyph unicode="&#xfa;" />
<glyph unicode="&#xfb;" />
<glyph unicode="&#xfc;" />
<glyph unicode="&#xfd;" horiz-adv-x="823" d="M68 1024h202l133 -637l154 637h203l-389 -1339h-172l110 409z" />
<glyph unicode="&#xff;" horiz-adv-x="823" d="M68 1024h202l133 -637l154 637h203l-389 -1339h-172l110 409z" />
<glyph unicode="&#x152;" horiz-adv-x="1722" d="M1005 -2v1354h617v-195h-406v-360h313v-193h-313v-407h424v-199h-635zM84 315v719q0 158 100 248q94 84 256 84q156 0 252 -89t96 -243v-719q0 -152 -97 -241.5t-251 -89.5q-162 0 -256 84q-100 89 -100 247zM297 319q0 -61 38 -103t99 -42t101 42t40 103v711 q0 61 -39.5 104.5t-101.5 43.5q-61 0 -99 -43t-38 -105v-711z" />
<glyph unicode="&#x153;" horiz-adv-x="1671" d="M922 526q0 520 348 521q209 0 277 -197q35 -102 35 -369h-459q4 -334 133 -334h8q70 12 100 97q16 43 19 108h199q1 -17 0 -32q0 -206 -148 -293q-76 -43 -164 -45h-5q-343 -1 -343 544zM1127 641h256v12q0 70 -23 133q-33 90 -96 95h-6q-113 0 -131 -240zM86 514 q0 176 16 272q45 260 316 261q270 0 315 -261q14 -84 15 -272q0 -190 -15 -274q-45 -260 -315 -260t-316 260q-16 96 -16 274zM289 514q0 -193 8 -240q23 -131 121 -131q96 0 121 131q8 43 8 240q0 195 -8 238q-25 131 -121 131q-98 0 -121 -131q-8 -48 -8 -238z" />
<glyph unicode="&#x178;" horiz-adv-x="882" d="M37 1352h223l180 -572l178 572h226l-301 -803v-551h-219v573z" />
<glyph unicode="&#x2c6;" horiz-adv-x="1185" d="M145 567l353 785h190l354 -785h-192l-256 574l-258 -574h-191z" />
<glyph unicode="&#x2dc;" d="M-455 276q94 143 236 144q59 0 139 -29q66 -27 133 -53q86 -35 146 -37q86 -4 172 106l82 -143q-111 -141 -240 -141q-74 0 -149 34l-123 60q-70 31 -131 31q-111 0 -183 -117z" />
<glyph unicode="&#x2000;" horiz-adv-x="1136" />
<glyph unicode="&#x2001;" horiz-adv-x="2273" />
<glyph unicode="&#x2002;" horiz-adv-x="1136" />
<glyph unicode="&#x2003;" horiz-adv-x="2273" />
<glyph unicode="&#x2004;" horiz-adv-x="757" />
<glyph unicode="&#x2005;" horiz-adv-x="567" />
<glyph unicode="&#x2006;" horiz-adv-x="378" />
<glyph unicode="&#x2007;" horiz-adv-x="378" />
<glyph unicode="&#x2008;" horiz-adv-x="282" />
<glyph unicode="&#x2009;" horiz-adv-x="454" />
<glyph unicode="&#x200a;" horiz-adv-x="124" />
<glyph unicode="&#x2010;" horiz-adv-x="882" d="M145 393v164h594v-164h-594z" />
<glyph unicode="&#x2011;" horiz-adv-x="882" d="M145 393v164h594v-164h-594z" />
<glyph unicode="&#x2012;" horiz-adv-x="882" d="M145 393v164h594v-164h-594z" />
<glyph unicode="&#x2013;" horiz-adv-x="1024" d="M205 512v205h614v-205h-614z" />
<glyph unicode="&#x2014;" horiz-adv-x="2048" d="M205 512v205h1638v-205h-1638z" />
<glyph unicode="&#x2018;" horiz-adv-x="657" d="M139 1389h232l147 -252h-170z" />
<glyph unicode="&#x2019;" horiz-adv-x="376" d="M20 971v383h181v-246z" />
<glyph unicode="&#x201c;" horiz-adv-x="796" d="M145 971v383h181v-246zM463 971v383h180v-246z" />
<glyph unicode="&#x201d;" horiz-adv-x="796" d="M145 971v383h181v-246zM463 971v383h180v-246z" />
<glyph unicode="&#x2022;" />
<glyph unicode="&#x2026;" horiz-adv-x="1529" d="M1170 -2v190h190v-190h-190zM660 -2v190h190v-190h-190zM150 -2v190h190v-190h-190z" />
<glyph unicode="&#x202f;" horiz-adv-x="454" />
<glyph unicode="&#x2039;" horiz-adv-x="1212" d="M127 391v164l958 389v-186l-723 -285l723 -283v-186z" />
<glyph unicode="&#x203a;" horiz-adv-x="1171" d="M106 4v186l723 283l-723 285v186l959 -389v-164z" />
<glyph unicode="&#x205f;" horiz-adv-x="567" />
<glyph unicode="&#x2122;" />
<glyph unicode="&#xe000;" horiz-adv-x="1025" d="M0 1025h1025v-1025h-1025v1025z" />
<glyph unicode="&#xfb01;" horiz-adv-x="1083" d="M751 -2v1026h199v-1026h-199zM751 1171v181h199v-181h-199zM76 866v158h127q0 195 41 260q53 90 229 90q29 0 59 -4v-162q-25 4 -45 4q-88 0 -88 -59v-129h123v-158h-123v-868h-196v868h-127z" />
<glyph unicode="&#xfb02;" horiz-adv-x="1083" d="M751 -2v1354h199v-1354h-199zM76 866v158h127q0 195 41 260q53 90 229 90q29 0 59 -4v-162q-25 4 -45 4q-88 0 -88 -59v-129h123v-158h-123v-868h-196v868h-127z" />
<glyph unicode="&#xfb03;" horiz-adv-x="1701" d="M1370 -2v1026h199v-1026h-199zM1370 1171v181h199v-181h-199zM694 866v158h127q0 195 41 260q53 90 229 90q29 0 59 -4v-162q-25 4 -45 4q-88 0 -88 -59v-129h123v-158h-123v-868h-196v868h-127zM76 866v158h127q0 195 41 260q53 90 229 90q29 0 59 -4v-162q-25 4 -45 4 q-88 0 -88 -59v-129h123v-158h-123v-868h-196v868h-127z" />
<glyph unicode="&#xfb04;" horiz-adv-x="1701" d="M1370 -2v1354h199v-1354h-199zM694 866v158h127q0 195 41 260q53 90 229 90q29 0 59 -4v-162q-25 4 -45 4q-88 0 -88 -59v-129h123v-158h-123v-868h-196v868h-127zM76 866v158h127q0 195 41 260q53 90 229 90q29 0 59 -4v-162q-25 4 -45 4q-88 0 -88 -59v-129h123v-158 h-123v-868h-196v868h-127z" />
</font>
</defs>
</svg>
